[www.MoviezAddiction.Co.In]Hotel Transylvania The Series S01e02 720p Webrip X264 Dual Audio [Hindi-E

Watch Free HD           Download Now
Torrent name: [www.MoviezAddiction.Co.In]Hotel Transylvania The Series S01e02 720p Webrip X264 Dual Audio [Hindi-E
File size: 267.37 MB
Seeds: 0
Leechs: 12
Update S/L
Last scrape: 28 July 2018 06:41:25
Downloaded: 48
Categories: Hindi Dubbed Movies
Uploader: TodayPk.se
Download [www.MoviezAddiction.Co.In]Hotel Transylvania The Series S01e02 720p Webrip X264 Dual Audio [Hindi-E
Magnet





Quote:




General 
Unique ID                   : 202467301330404382581848101816984605900 (0x9851C8A9AEBA55108CB60AE96B6F14CC) 
Complete name               : I:Torrents[www.MoviezAddiction.Co.In]Hotel Transylvania The Series S01e02 720p Webrip X264 Dual Audio [Hindi-English] [CraZzy Boy]Hotel Transylvania The Series S01e02 720p Webrip X264 Dual Audio [Hindi-English] [CraZzy Boy].mkv 
Format                      : Matroska 
Format version              : Version 4 / Version 2 
File size                   : 267 MiB 
Duration                    : 22 min 35 s 
Overall bit rate            : 1 654 kb/s 
Movie name                  : www.MoviezAddiction.Co.in 
Encoded date                : UTC 2017-12-24 20:11:50 
Writing application         : mkvmerge v12.0.0 ('Trust / Lust') 64bit 
Writing library             : libebml v1.3.4 + libmatroska v1.4.5 

Video 
ID                          : 1 
Format                      : AVC 
Format/Info                 : Advanced Video Codec 
Format profile              : [email protected] 
Format settings, CABAC      : Yes 
Format settings, ReFrames   : 9 frames 
Codec ID                    : V_MPEG4/ISO/AVC 
Duration                    : 22 min 31 s 
Bit rate                    : 1 400 kb/s 
Width                       : 1 280 pixels 
Height                      : 720 pixels 
Display aspect ratio        : 16:9 
Frame rate mode             : Constant 
Frame rate                  : 29.970 (30000/1001) FPS 
Color space                 : YUV 
Chroma subsampling          : 4:2:0 
Bit depth                   : 8 bits 
Scan type                   : Progressive 
Bits/(Pixel*Frame)          : 0.051 
Stream size                 : 226 MiB (84%) 
Title                       : www.MoviezAddiction.Co.in 
Writing library             : x264 core 148 r2708 86b7198 
Encoding settings           : cabac=1 / ref=9 / deblock=1:0:0 / analyse=0x1:0x131 / me=umh / subme=10 / psy=1 / psy_rd=1.00:0.00 / mixed_ref=1 / me_range=24 / chroma_me=1 / trellis=2 / 8x8dct=0 / cqm=0 / deadzone=21,11 / fast_pskip=1 / chroma_qp_offset=-2 / threads=6 / lookahead_threads=1 / sliced_threads=0 / nr=0 / decimate=1 / interlaced=0 / bluray_compat=0 / constrained_intra=0 / bframes=8 / b_pyramid=2 / b_adapt=2 / b_bias=0 / direct=3 / weightb=1 / open_gop=0 / weightp=2 / keyint=300 / keyint_min=30 / scenecut=40 / intra_refresh=0 / rc_lookahead=60 / rc=2pass / mbtree=1 / bitrate=1400 / ratetol=1.0 / qcomp=0.60 / qpmin=0 / qpmax=69 / qpstep=4 / cplxblur=20.0 / qblur=0.5 / vbv_maxrate=20000 / vbv_bufsize=25000 / nal_hrd=none / filler=0 / ip_ratio=1.40 / aq=1:1.00 
Default                     : Yes 
Forced                      : No 
Color range                 : Limited 
Color primaries             : BT.709 
Transfer characteristics    : BT.709 
Matrix coefficients         : BT.709 

Audio #1 
ID                          : 2 
Format                      : AAC 
Format/Info                 : Advanced Audio Codec 
Format profile              : LC 
Codec ID                    : A_AAC 
Duration                    : 22 min 31 s 
Bit rate                    : 128 kb/s 
Channel(s)                  : 2 channels 
Channel positions           : Front: L R 
Sampling rate               : 48.0 kHz 
Frame rate                  : 46.875 FPS (1024 spf) 
Compression mode            : Lossy 
Delay relative to video     : 1 ms 
Stream size                 : 20.7 MiB (8%) 
Title                       : www.MoviezAddiction.Co.in 
Language                    : English 
Default                     : No 
Forced                      : No 

Audio #2 
ID                          : 3 
Format                      : MPEG Audio 
Format version              : Version 1 
Format profile              : Layer 3 
Mode                        : Joint stereo 
Mode extension              : MS Stereo 
Codec ID                    : A_MPEG/L3 
Codec ID/Hint               : MP3 
Duration                    : 22 min 35 s 
Bit rate mode               : Constant 
Bit rate                    : 128 kb/s 
Channel(s)                  : 2 channels 
Sampling rate               : 44.1 kHz 
Frame rate                  : 38.281 FPS (1152 spf) 
Compression mode            : Lossy 
Stream size                 : 20.7 MiB (8%) 
Title                       : www.MoviezAddiction.Co.in 
Writing library             : LAME3.98.2 
Language                    : Hindi 
Default                     : Yes 
Forced                      : No 

Text 
ID                          : 4 
Format                      : UTF-8 
Codec ID                    : S_TEXT/UTF8 
Codec ID/Info               : UTF-8 Plain Text 
Duration                    : 1 min 10 s 
Bit rate                    : 36 b/s 
Count of elements           : 4 
Stream size                 : 322 Bytes (0%) 
Title                       : www.MoviezAddiction.Co.in 
Language                    : English 
Default                     : Yes 
Forced                      : Yes 








Advertisement
    - udp://tracker.coppersurfer.tk:6969/announce
    - udp://9.rarbg.com:2710/announce
    - udp://p4p.arenabg.com:1337
    - udp://tracker.leechers-paradise.org:6969
    - udp://tracker.internetwarriors.net:1337
    - udp://tracker.opentrackr.org:1337/announce
Tools
Last scrape: 28 July 2018 06:41:25