Olaf's Frozen Adventure 2017 720p Esub HD Dual Audio English Hindi GOPISAHI.mkv

Watch Free HD           Download Now
Torrent name: Olaf's Frozen Adventure 2017 720p Esub HD Dual Audio English Hindi GOPISAHI.mkv
File size: 123.99 MB
Seeds: 6
Leechs: 0
Update S/L
Last scrape: 19 October 2018 17:35:33
Downloaded: 688
Categories: Hindi Dubbed Movies
Uploader: TodayPk.se
Download Olaf's Frozen Adventure 2017 720p Esub HD Dual Audio English Hindi GOPISAHI.mkv
Magnet


Format : Matroska 
Format version : Version 4 / Version 2 
File size : 124 MiB 
Duration : 22 min 15 s 
Overall bit rate : 779 kb/s 
Movie name : Olaf's Frozen Adventure 2017 

Video 
Format : AVC 
Codec ID : V_MPEG4/ISO/AVC 
Duration : 22 min 15 s 
Bit rate : 600 kb/s 
Width : 1 280 pixels 
Height : 720 pixels 
Display aspect ratio : 16:9 
Frame rate mode : Constant 
Frame rate : 24.000 FPS 
Stream size : 95.6 MiB (77%) 
Writing library : x264 

Audio #1 
Format : AAC 
Duration : 21 min 53 s 
Bit rate : 86.4 kb/s 
Channel(s) : 6 channels 
Channel positions : Front: L C R, Side: L R, LFE 
Sampling rate : 44.1 kHz 
Frame rate : 43.066 FPS (1024 SPF) 
Stream size : 13.5 MiB (11%) 
Language : English 

Audio #2 
Format : AAC 
Duration : 21 min 53 s 
Bit rate : 91.1 kb/s 
Channel(s) : 6 channels 
Channel positions : Front: L C R, Side: L R, LFE 
Sampling rate : 44.1 kHz 
Frame rate : 43.066 FPS (1024 SPF) 
Compression mode : Lossy 
Stream size : 14.3 MiB (12%) 
Language : Hindi 

Text 
Language : English 


Advertisement
    - udp://tracker.coppersurfer.tk:6969/announce
    - udp://9.rarbg.com:2710/announce
    - udp://p4p.arenabg.com:1337
    - udp://tracker.leechers-paradise.org:6969
    - udp://tracker.internetwarriors.net:1337
    - udp://tracker.opentrackr.org:1337/announce
Tools
Last scrape: 19 October 2018 17:35:33