Boonie Bears Robo Rumble 2014 720p Esub BluRay Dual Audio English Hindi GOPISAHI.mkv

Watch Free HD           Download Now
Torrent name: Boonie Bears Robo Rumble 2014 720p Esub BluRay Dual Audio English Hindi GOPISAHI.mkv
File size: 272.46 MB
Seeds: 0
Leechs: 7
Update S/L
Last scrape: 15 June 2018 12:06:08
Downloaded: 0
Categories: Hindi Dubbed Movies
Uploader: TodayPk.se
Download Boonie Bears Robo Rumble 2014 720p Esub BluRay Dual Audio English Hindi GOPISAHI.mkv
Magnet


Format : Matroska 
Format version : Version 4 / Version 2 
File size : 272 MiB 
Duration : 55 min 43 s 
Overall bit rate : 684 kb/s 
Movie name : Boonie Bears Robo Rumble 2014 

Video 
Format : AVC 
Codec ID : V_MPEG4/ISO/AVC 
Duration : 55 min 8 s 
Bit rate : 500 kb/s 
Width : 1 280 pixels 
Height : 720 pixels 
Display aspect ratio : 16:9 
Frame rate mode : Constant 
Frame rate : 25.000 FPS 
Color space : YUV 
Chroma subsampling : 4:2:0 
Bit depth : 8 bits 
Scan type : Progressive 
Bits/(Pixel*Frame) : 0.022 
Stream size : 197 MiB (72%) 
Writing library : x264 

Audio #1 
Format : AAC 
Duration : 55 min 9 s 
Bit rate : 93.5 kb/s 
Channel(s) : 6 channels 
Channel positions : Front: L C R, Side: L R, LFE 
Sampling rate : 44.1 kHz 
Frame rate : 43.066 FPS (1024 SPF) 
Stream size : 36.9 MiB (14%) 
Language : English 

Audio #2 
Format : AAC 
Duration : 55 min 43 s 
Bit rate : 93.4 kb/s 
Channel(s) : 6 channels 
Channel positions : Front: L C R, Side: L R, LFE 
Sampling rate : 44.1 kHz 
Frame rate : 43.066 FPS (1024 SPF) 
Compression mode : Lossy 
Stream size : 37.2 MiB (14%) 
Language : Hindi 


Advertisement
    - udp://tracker.coppersurfer.tk:6969/announce
    - udp://9.rarbg.com:2710/announce
    - udp://p4p.arenabg.com:1337
    - udp://tracker.leechers-paradise.org:6969
    - udp://tracker.internetwarriors.net:1337
    - udp://tracker.opentrackr.org:1337/announce
Tools
Last scrape: 15 June 2018 12:06:08