Dragon Ball Z - Saiyan Saga (Episode 1) Hindi Dubbed.mp4

Watch Free HD           Download Now
Torrent name: Dragon Ball Z - Saiyan Saga (Episode 1) Hindi Dubbed.mp4
File size: 120.13 MB
Seeds: 0
Leechs: 0
Update S/L
Last scrape: 13 September 2018 07:40:26
Downloaded: 0
Categories: Hindi Dubbed Movies
Uploader: TodayPk.se
Download Dragon Ball Z - Saiyan Saga (Episode 1) Hindi Dubbed.mp4
Magnet



General 
Complete name                            : Dragon Ball Z - Saiyan Saga (Episode 1) Hindi Dubbed.mp4 
Format                                   : MPEG-4 
Format profile                           : Base Media / Version 2 
Codec ID                                 : mp42 (isom/iso2/avc1/mp41) 
File size                                : 120 MiB 
Duration                                 : 22 min 21 s 
Overall bit rate mode                    : Variable 
Overall bit rate                         : 751 kb/s 
Encoded date                             : UTC 2036-02-06 06:28:16 
Tagged date                              : UTC 2036-02-06 06:28:16 
Writing application                      : HandBrake 0.10.2 2015060900 

Video 
ID                                       : 1 
Format                                   : AVC 
Format/Info                              : Advanced Video Codec 
Format profile                           : [email protected] 
Format settings                          : CABAC / 6 Ref Frames 
Format settings, CABAC                   : Yes 
Format settings, RefFrames               : 6 frames 
Codec ID                                 : avc1 
Codec ID/Info                            : Advanced Video Coding 
Duration                                 : 22 min 21 s 
Bit rate                                 : 585 kb/s 
Width                                    : 640 pixels 
Height                                   : 576 pixels 
Display aspect ratio                     : 4:3 
Frame rate mode                          : Variable 
Frame rate                               : 23.976 (24000/1001) FPS 
Minimum frame rate                       : 23.974 FPS 
Maximum frame rate                       : 23.981 FPS 
Color space                              : YUV 
Chroma subsampling                       : 4:2:0 
Bit depth                                : 8 bits 
Scan type                                : Progressive 
Bits/(Pixel*Frame)                       : 0.066 
Stream size                              : 93.5 MiB (78%) 
Writing library                          : x264 core 142 r2479 dd79a61 
Encoding settings                        : cabac=1 / ref=6 / deblock=1:1:1 / analyse=0x3:0x113 / me=hex / subme=7 / psy=1 / psy_rd=0.40:0.00 / mixed_ref=1 / me_range=16 / chroma_me=1 / trellis=1 / 8x8dct=1 / cqm=0 / deadzone=21,11 / fast_pskip=1 / chroma_qp_offset=-2 / threads=6 / lookahead_threads=1 / sliced_threads=0 / nr=0 / decimate=1 / interlaced=0 / bluray_compat=0 / constrained_intra=0 / bframes=5 / b_pyramid=2 / b_adapt=1 / b_bias=0 / direct=1 / weightb=1 / open_gop=0 / weightp=2 / keyint=240 / keyint_min=24 / scenecut=40 / intra_refresh=0 / rc_lookahead=40 / rc=crf / mbtree=1 / crf=23.0 / qcomp=0.60 / qpmin=0 / qpmax=69 / qpstep=4 / vbv_maxrate=62500 / vbv_bufsize=78125 / crf_max=0.0 / nal_hrd=none / filler=0 / ip_ratio=1.40 / aq=1:0.60 
Encoded date                             : UTC 2036-02-06 06:28:16 
Tagged date                              : UTC 2036-02-06 06:28:16 
Color range                              : Limited 
Color primaries                          : BT.601 NTSC 
Transfer characteristics                 : BT.709 
Matrix coefficients                      : BT.601 





Audio 
ID                                       : 2 
Format                                   : AAC 
Format/Info                              : Advanced Audio Codec 
Format profile                           : LC 
Codec ID                                 : mp4a-40-2 
Duration                                 : 22 min 20 s 
Bit rate mode                            : Variable 
Bit rate                                 : 160 kb/s 
Channel(s)                               : 2 channels 
Channel positions                        : Front: L R 
Sampling rate                            : 48.0 kHz 
Frame rate                               : 46.875 FPS (1024 SPF) 
Compression mode                         : Lossy 
Stream size                              : 25.5 MiB (21%) 
Title                                    : Stereo / Stereo 
Language                                 : Hindi 
Default                                  : Yes 
Alternate group                          : 1 
Encoded date                             : UTC 2036-02-06 06:28:16 
Tagged date                              : UTC 2036-02-06 06:28:16


Advertisement
    - udp://tracker.coppersurfer.tk:6969/announce
    - udp://9.rarbg.com:2710/announce
    - udp://p4p.arenabg.com:1337
    - udp://tracker.leechers-paradise.org:6969
    - udp://tracker.internetwarriors.net:1337
    - udp://tracker.opentrackr.org:1337/announce
Tools
Last scrape: 13 September 2018 07:40:26