Shame, Shame, Shame 1999 x264 DVD Dual Audio English Hindi GOPISAHI.mkv

Watch Free HD           Download Now
Torrent name: Shame, Shame, Shame 1999 x264 DVD Dual Audio English Hindi GOPISAHI.mkv
File size: 237.5 MB
Seeds: 4
Leechs: 0
Update S/L
Last scrape: 17 March 2018 11:09:40
Downloaded: 259
Categories: Hindi
Uploader: TodayPk.se
Download Shame, Shame, Shame 1999 x264 DVD Dual Audio English Hindi GOPISAHI.mkv
Magnet


Format : Matroska 
Format version : Version 4 / Version 2 
File size : 237 MiB 
Duration : 1 h 28 min 
Overall bit rate : 376 kb/s 
Movie name : Shame, Shame, Shame 1999 GOPISAHI 

Video 
Format : AVC 
Codec ID : V_MPEG4/ISO/AVC 
Duration : 1 h 28 min 
Bit rate : 200 kb/s 
Width : 576 pixels 
Height : 432 pixels 
Display aspect ratio : 4:3 
Frame rate mode : Constant 
Frame rate : 23.976 (24000/1001) FPS 
Stream size : 126 MiB (53%) 
Title : GOPISAHI 
Writing library : x264 core 155 r2893 b00bcaf 

Audio #1 
Format : AAC 
Duration : 1 h 28 min 
Bit rate : 85.0 kb/s 
Channel(s) : 6 channels 
Channel positions : Front: L C R, Side: L R, LFE 
Sampling rate : 44.1 kHz 
Frame rate : 43.066 FPS (1024 SPF) 
Compression mode : Lossy 
Stream size : 53.7 MiB (23%) 
Title : GOPISAHI 
Language : Hindi 

Audio #2 
Format : AAC 
Duration : 1 h 28 min 
Bit rate : 88.5 kb/s 
Channel(s) : 6 channels 
Channel positions : Front: L C R, Side: L R, LFE 
Sampling rate : 44.1 kHz 
Frame rate : 43.066 FPS (1024 SPF) 
Compression mode : Lossy 
Stream size : 55.9 MiB (24%) 
Title : GOPISAHI 
Language : English 


Advertisement
    - udp://tracker.coppersurfer.tk:6969/announce
    - udp://9.rarbg.com:2710/announce
    - udp://p4p.arenabg.com:1337
    - udp://tracker.leechers-paradAise.org:6969
    - udp://tracker.internetwarriors.net:1337
    - udp://tracker.opentrackr.org:1337/announce
Tools
Last scrape: 17 March 2018 11:09:40