Inner Sanctum 1991 DVD Dual Audio English Hindi GOPISAH

Watch Free HD           Download Now
Torrent name: Inner Sanctum 1991 DVD Dual Audio English Hindi GOPISAH
File size: 243.05 MB
Seeds: 51
Leechs: 26
Update S/L
Last scrape: 20 March 2018 08:20:11
Downloaded: 341
Categories: English
Uploader: TodayPk.se
Download Inner Sanctum 1991 DVD Dual Audio English Hindi GOPISAH
Magnet


Format : Matroska 
Format version : Version 4 / Version 2 
File size : 243 MiB 
Duration : 1 h 30 min 
Overall bit rate : 377 kb/s 
Movie name : Inner Sanctum 1991 GOPISAHI 

Video 
Format : AVC 
Codec ID : V_MPEG4/ISO/AVC 
Duration : 1 h 30 min 
Bit rate : 200 kb/s 
Width : 640 pixels 
Height : 480 pixels 
Display aspect ratio : 4:3 
Frame rate mode : Constant 
Frame rate : 23.976 (23976/1000) FPS 
Stream size : 129 MiB (53%) 
Title : GOPISAHI 
Writing library : x264 core 155 r2893 b00bcaf 

Audio #1 
Format : AAC 
Duration : 1 h 30 min 
Bit rate : 84.5 kb/s 
Channel(s) : 6 channels 
Channel positions : Front: L C R, Side: L R, LFE 
Sampling rate : 44.1 kHz 
Frame rate : 43.066 FPS (1024 SPF) 
Compression mode : Lossy 
Stream size : 54.5 MiB (22%) 
Title : GOPISAHI 
Language : Hindi 

Audio #2 
Format : AAC 
Duration : 1 h 30 min 
Bit rate : 89.9 kb/s 
Channel(s) : 6 channels 
Channel positions : Front: L C R, Side: L R, LFE 
Sampling rate : 44.1 kHz 
Frame rate : 43.066 FPS (1024 SPF) 
Compression mode : Lossy 
Stream size : 57.9 MiB (24%) 
Title : GOPISAHI 
Language : English 


Advertisement
    - udp://tracker.coppersurfer.tk:6969/announce
    - udp://9.rarbg.com:2710/announce
    - udp://p4p.arenabg.com:1337
    - udp://tracker.leechers-paradise.org:6969
    - udp://tracker.internetwarriors.net:1337
    - udp://tracker.opentrackr.org:1337/announce
Tools
Last scrape: 20 March 2018 08:20:11