Super Singh (2017) Hindi 720p Original HDRip x264 AAC 1.1GB

Watch Free HD           Download Now
Torrent name: Super Singh (2017) Hindi 720p Original HDRip x264 AAC 1.1GB
File size: 1.06 GB
Seeds: 54
Leechs: 20
Update S/L
Last scrape: 22 July 2018 10:38:10
Downloaded: 2124
Categories: Hindi Dubbed Movies
Uploader: TodayPk.se
Download Super Singh (2017) Hindi 720p Original HDRip x264 AAC 1.1GB
Magnet




General 
Unique ID : 286564750056728452891930445918041699396 (0xD7965D02259DE9EF1ED86B8ABF227444) 
Complete name : www.MovCr.com - Super Singh (2017) Hindi 720p Original HDRip x264 AAC 1.1GB
Format : Matroska 
Format version : Version 4 / Version 2 
File size : 1.06 GiB 
Duration : 2 h 28 min 
Overall bit rate : 1 021 kb/s 
Movie name : www.MovCr.com 
Encoded date : UTC 2018-07-06 17:05:34 
Writing application : mkvmerge v23.0.0 ('The Bride Said No') 64-bit 
Writing library : libebml v1.3.6 + libmatroska v1.4.9 

Video 
ID : 1 
Format : AVC 
Format/Info : Advanced Video Codec 
Format profile : [email protected] 
Format settings, CABAC : Yes 
Format settings, ReFrames : 2 frames 
Format settings, GOP : M=1, N=25 
Codec ID : V_MPEG4/ISO/AVC 
Duration : 2 h 28 min 
Bit rate : 920 kb/s 
Width : 1 280 pixels 
Height : 544 pixels 
Display aspect ratio : 2.35:1 
Frame rate mode : Constant 
Frame rate : 25.000 FPS 
Color space : YUV 
Chroma subsampling : 4:2:0 
Bit depth : 8 bits 
Scan type : Progressive 
Bits/(Pixel*Frame) : 0.053 
Stream size : 974 MiB (90%) 
Title : www.MovCr.com 
Default : Yes 
Forced : No 

Audio 
ID : 2 
Format : AAC 
Format/Info : Advanced Audio Codec 
Format profile : LC 
Codec ID : A_AAC 
Duration : 2 h 28 min 
Bit rate : 98.9 kb/s 
Channel(s) : 2 channels 
Channel positions : Front: L R 
Sampling rate : 48.0 kHz 
Frame rate : 46.875 FPS (1024 spf) 
Compression mode : Lossy 
Stream size : 105 MiB (10%) 
Title : www.MovCr.com 
Language : Hindi 
Default : Yes 
Forced : No 











Advertisement
    - udp://tracker.coppersurfer.tk:6969/announce
    - udp://9.rarbg.com:2710/announcea
    - udp://p4p.arenabg.com:1337
    - udp://tracker.leechers-paradise.org:6969
    - udp://tracker.internetwarriors.net:1337
    - udp://tracker.opentrackr.org:1337/announce
Tools
Last scrape: 22 July 2018 10:38:10