Lahoriye [2017] [Punjabi] HDCAM x264 [643MB]

Watch Free HD           Download Now
Torrent name: Lahoriye [2017] [Punjabi] HDCAM x264 [643MB]
File size: 643.5 MB
Seeds: 0
Leechs: 0
Update S/L
Last scrape: 27 September 2018 20:04:51
Downloaded: 1
Categories: Punjabi
Uploader: admin
Download Lahoriye [2017] [Punjabi] HDCAM x264 [643MB]
Magnet



Image 


Screenshots? - Click the links below 
https://imagexxl.us/Lahoriye/1.html 

https://imagexxl.us/Lahoriye/2.html 

https://imagexxl.us/Lahoriye/3.html 

https://imagexxl.us/Lahoriye/4.html 

https://imagexxl.us/Lahoriye/5.html 


Code:


Format : MPEG-4 
Format profile : Base Media / Version 2 
Codec ID : mp42 (isom/iso2/avc1/mp41) 
File size : 643 MiB 
Duration : 2 h 12 min 
Overall bit rate mode : Variable 
Overall bit rate : 681 kb/s 
Encoded date : UTC 2017-05-13 07:10:22 
Tagged date : UTC 2017-05-13 07:10:22 
Writing application : HandBrake 0.10.5 2016021100 

Video 
ID : 1 
Format : AVC 
Format/Info : Advanced Video Codec 
Format profile : [email protected] 
Format settings, CABAC : Yes 
Format settings, ReFrames : 4 frames 
Codec ID : avc1 
Codec ID/Info : Advanced Video Coding 
Duration : 2 h 12 min 
Bit rate : 614 kb/s 
Width : 640 pixels 
Height : 272 pixels 
Display aspect ratio : 2.35:1 
Frame rate mode : Constant 
Frame rate : 25.000 FPS 
Color space : YUV 
Chroma subsampling : 4:2:0 
Bit depth : 8 bits 
Scan type : Progressive 
Bits/(Pixel*Frame) : 0.141 
Stream size : 578 MiB (90%) 
Writing library : x264 core 142 r2491 24e4fed 
Encoding settings : cabac=1 / ref=3 / deblock=1:0:0 / analyse=0x3:0x113 / me=hex / subme=7 / psy=1 / psy_rd=1.00:0.00 / mixed_ref=1 / me_range=16 / chroma_me=1 / trellis=1 / 8x8dct=1 / cqm=0 / deadzone=21,11 / fast_pskip=1 / chroma_qp_offset=-2 / threads=12 / lookahead_threads=2 / sliced_threads=0 / nr=0 / decimate=1 / interlaced=0 / bluray_compat=0 / constrained_intra=0 / bframes=3 / b_pyramid=2 / b_adapt=1 / b_bias=0 / direct=1 / weightb=1 / open_gop=0 / weightp=2 / keyint=250 / keyint_min=25 / scenecut=40 / intra_refresh=0 / rc_lookahead=40 / rc=abr / mbtree=1 / bitrate=614 / ratetol=1.0 / qcomp=0.60 / qpmin=0 / qpmax=69 / qpstep=4 / vbv_maxrate=17500 / vbv_bufsize=17500 / nal_hrd=none / filler=0 / ip_ratio=1.40 / aq=1:1.00 
Encoded date : UTC 2017-05-13 07:10:22 
Tagged date : UTC 2017-05-13 07:10:22 
Color range : Limited 
Color primaries : BT.601 PAL 
Transfer characteristics : BT.709 
Matrix coefficients : BT.601 

Audio 
ID : 2 
Format : AAC 
Format/Info : Advanced Audio Codec 
Format profile : LC 
Codec ID : 40 
Duration : 2 h 12 min 
Bit rate mode : Variable 
Bit rate : 64.3 kb/s 
Channel(s) : 2 channels 
Channel positions : Front: L R 
Sampling rate : 32.0 kHz 
Frame rate : 31.250 FPS (1024 spf) 
Compression mode : Lossy 
Stream size : 60.8 MiB (9%) 
Title : Stereo / Stereo 
Default : Yes 
Alternate group : 1 
Encoded date : UTC 2017-05-13 07:10:22 
Tagged date : UTC 2017-05-13 07:10:22 

Advertisement
    - http://explodie.org:6969/announce
    - http://tracker.tfile.me/announce
    - http://bigfoot1942.sektori.org:6969/announce
    - udp://eddie4.nl:6969/announce
    - udp://tracker4.piratux.com:6969/announce
    - udp://tracker.trackerfix.com:80/announce
    - udp://tracker.pomf.se:80/announce
    - udp://torrent.gresille.org:80/announce
    - udp://9.rarbg.me:2710/announce
    - udp://tracker.leechers-paradise.org:6969/announce
    - udp://glotorrents.pw:6969/announce
    - udp://tracker.opentrackr.org:1337/announce
    - udp://tracker.blackunicorn.xyz:6969/announce
    - udp://tracker.internetwarriors.net:1337/announce
    - udp://p4p.arenabg.ch:1337/announce
    - udp://tracker.coppersurfer.tk:6969/announce
    - udp://9.rarbg.to:2710/announce
    - udp://tracker.openbittorrent.com:80/announce
    - udp://glotorrents.pw:6969/announce
Tools
Last scrape: 27 September 2018 20:04:51