Lahoriye (2017) pDVDRip x265 427 MiB Punjabi AAC - Lesnar

Watch Free HD           Download Now
Torrent name: Lahoriye (2017) pDVDRip x265 427 MiB Punjabi AAC - Lesnar
File size: 424.71 MB
Seeds: 144
Leechs: 0
Update S/L
Last scrape: 8 September 2018 18:13:38
Downloaded: 25914
Categories: Punjabi
Uploader: admin
Download Lahoriye (2017) pDVDRip x265 427 MiB Punjabi AAC - Lesnar
Magnet

Lahoriye (2017) pDVDRip x265 427 MiB Punjabi AAC - Lesnar 



IMDb Rating: 8.9/10 

General 
Unique ID : 231921601180559546634729074893079145447 (0xAE7A79C3F62E3B6D995289C1EE8B6BE7) 
Format : Matroska 
Format version : Version 4 / Version 2 
File size : 425 MiB 
Duration : 2 h 12 min 
Overall bit rate : 449 kb/s 
Encoded date : UTC 2017-05-14 15:10:10 
Writing application : mkvmerge v7.9.0 ('Birds') 64bit 
Writing library : libebml v1.3.1 + libmatroska v1.4.2 

Video 
ID : 1 
Format : HEVC 
Format/Info : High Efficiency Video Coding 
Format profile : [email protected]@Main 
Codec ID : V_MPEGH/ISO/HEVC 
Duration : 2 h 12 min 
Bit rate : 287 kb/s 
Width : 640 pixels 
Height : 272 pixels 
Display aspect ratio : 2.35:1 
Frame rate mode : Constant 
Frame rate : 25.000 FPS 
Color space : YUV 
Chroma subsampling : 4:2:0 
Bit depth : 8 bits 
Bits/(Pixel*Frame) : 0.066 
Stream size : 271 MiB (64%) 
Title : Lahoriye (2017) pDVDRip x265 427 MiB Punjabi AAC - Lesnar 
Writing library : x265 1.9:[Windows][GCC 4.7.0][32 bit] 8bit 
Encoding settings : wpp / ctu=64 / min-cu-size=8 / max-tu-size=32 / tu-intra-depth=1 / tu-inter-depth=1 / me=1 / subme=2 / merange=57 / no-rect / no-amp / max-merge=2 / temporal-mvp / no-early-skip / rdpenalty=0 / no-tskip / no-tskip-fast / strong-intra-smoothing / no-lossless / no-cu-lossless / no-constrained-intra / no-fast-intra / open-gop / no-temporal-layers / interlace=0 / keyint=250 / min-keyint=25 / scenecut=40 / rc-lookahead=10 / lookahead-slices=0 / bframes=4 / bframe-bias=0 / b-adapt=2 / ref=1 / limit-refs=3 / no-limit-modes / weightp / no-weightb / aq-mode=1 / qg-size=32 / aq-strength=1.00 / cbqpoffs=0 / crqpoffs=0 / rd=3 / psy-rd=2.00 / rdoq-level=0 / psy-rdoq=0.00 / signhide / deblock / sao / no-sao-non-deblock / b-pyramid / cutree / no-intra-refresh / rc=crf / crf=26.0 / qcomp=0.60 / qpmin=0 / qpmax=51 / qpstep=4 / vbv-maxrate=12000 / vbv-bufsize=12000 / crf-max=0.0 / ipratio=1.40 / pbratio=1.30 
Language : Panjabi 
Default : Yes 
Forced : No 
Color range : Limited 
Color primaries : BT.601 PAL 
Transfer characteristics : BT.709 
Matrix coefficients : BT.601 

Audio 
ID : 2 
Format : AAC 
Format/Info : Advanced Audio Codec 
Format profile : LC 
Codec ID : A_AAC 
Duration : 2 h 12 min 
Bit rate : 160 kb/s 
Channel(s) : 2 channels 
Channel positions : Front: L R 
Sampling rate : 32.0 kHz 
Frame rate : 31.250 FPS (1024 spf) 
Compression mode : Lossy 
Stream size : 152 MiB (36%) 




Advertisement
    - http://explodie.org:6969/announce
    - http://tracker.tfile.me/announce
    - http://bigfoot1942.sektori.org:6969/announce
    - udp://eddie4.nl:6969/announce
    - udp://tracker4.piratux.com:6969/announce
    - udp://tracker.trackerfix.com:80/announce
    - udp://tracker.pomf.se:80/announce
    - udp://torrent.gresille.org:80/announce
    - udp://9.rarbg.me:2710/announce
    - udp://tracker.leechers-paradise.org:6969/announce
    - udp://glotorrents.pw:6969/announce
    - udp://tracker.opentrackr.org:1337/announce
    - udp://tracker.blackunicorn.xyz:6969/announce
    - udp://tracker.internetwarriors.net:1337/announce
    - udp://p4p.arenabg.ch:1337/announce
    - udp://tracker.coppersurfer.tk:6969/announce
    - udp://9.rarbg.to:2710/announce
    - udp://tracker.openbittorrent.com:80/announce
    - udp://glotorrents.pw:6969/announce
    - http://ipv4.tracker.harry.lu/announce
    - http://t.nyaatracker.com/announce
    - udp://9.rarbg.to:2710/announce
    - udp://p4p.arenabg.com:1337/announce
    - udp://ipv4.tracker.harry.lu:80/announce
    - udp://tracker.zer0day.to:1337/announce
    - udp://tracker.opentrackr.org:1337/announce
    - udp://eddie4.nl:6969/announce
    - udp://tracker.leechers-paradise.org:6969/announce
    - udp://tracker.pirateparty.gr:6969/announce
    - udp://tracker.grepler.com:6969/announce
    - udp://shadowshq.yi.org:6969/announce
    - udp://tracker.coppersurfer.tk:6969/announce
Tools
Last scrape: 8 September 2018 18:13:38