Revolver Raja (2017) [Babu Bangaram Hindi Dubbed] DTHRip 950MB

Watch Free HD           Download Now
Torrent name: Revolver Raja (2017) [Babu Bangaram Hindi Dubbed] DTHRip 950MB
File size: 949.55 MB
Seeds: 0
Leechs: 0
Update S/L
Last scrape: 30 October 2018 08:44:42
Downloaded: 0
Categories: Hindi Dubbed Movies
Uploader: admin
Download Revolver Raja (2017) [Babu Bangaram Hindi Dubbed] DTHRip 950MB
Magnet



Revolver Raja (2017) Hindi DTHRip x264 AAC -

Source :- ICTV 


Format : Matroska 
Format version : Version 4 / Version 2 
File size : 950 MiB 
Duration : 1 h 56 min 
Overall bit rate : 1 135 kb/s 

Video 
ID : 1 
Format : AVC 
Format/Info : Advanced Video Codec 
Format profile : [email protected] 
Format settings, CABAC : Yes 
Format settings, ReFrames : 4 frames 
Codec ID : V_MPEG4/ISO/AVC 
Duration : 1 h 56 min 
Bit rate : 1 000 kb/s 
Width : 720 pixels 
Height : 310 pixels 
Display aspect ratio : 2.35:1 
Frame rate mode : Variable 
Frame rate : 25.000 FPS 
Color space : YUV 
Chroma subsampling : 4:2:0 
Bit depth : 8 bits 
Scan type : Progressive 
Bits/(Pixel*Frame) : 0.179 
Stream size : 839 MiB (88%) 
Default : Yes 
Forced : No 
Color range : Limited 
Color primaries : BT.601 NTSC 
Transfer characteristics : BT.709 
Matrix coefficients : BT.601 

Audio 
ID : 2 
Format : AAC 
Format/Info : Advanced Audio Codec 
Format profile : LC 
Codec ID : A_AAC 
Duration : 1 h 56 min 
Bit rate : 129 kb/s 
Channel(s) : 2 channels 
Channel positions : Front: L R 
Sampling rate : 48.0 kHz 
Frame rate : 46.875 FPS (1024 spf) 
Compression mode : Lossy 
Stream size : 108 MiB (11%) 
Default : Yes 
Forced : No 




Advertisement
    - http://bigfoot1942.sektori.org:6969/announce
    - http://tracker2.wasabii.com.tw:6969/announce
    - http://tracker.mg64.net:6881/announce
    - http://bt.artvid.ru:6969/announce
    - http://open.acgtracker.com:1096/announce
    - http://tracker.opentrackr.org/announce
    - http://announce.torrentsmd.com:6969/announce
    - http://tracker.trackerfix.com/announce
    - http://tracker.opentrackr.org/announce
    - udp://tracker.openbittorrent.com:80/announce
    - udp://explodie.org:6969/announce
    - udp://mgtracker.org:6969/announce
    - udp://asnet.pw:2710/announce
    - udp://tracker.mgtracker.org:2710/announce
    - udp://tracker4.piratux.com:6969/announce
    - udp://tracker.trackerfix.com:80/announce
    - udp://tracker.pomf.se:80/announce
    - udp://torrent.gresille.org:80/announce
    - udp://tracker.x4w.co:6969/announce
    - udp://castradio.net:6969/announce
    - udp://p4p.arenabg.com:1337
    - udp://ipv4.tracker.harry.lu:80/announce
    - udp://inferno.demonoid.ooo:3389/announce
    - udp://tracker.sktorrent.net:6969/announce
    - udp://tracker.blackunicorn.xyz:6969/announce
    - udp://tracker.internetwarriors.net:1337/announce
    - udp://exodus.desync.com:6969/announce
    - udp://eddie4.nl:6969/announce
    - udp://tracker.pirateparty.gr:6969/announce
    - udp://p4p.arenabg.ch:1337/announce
    - udp://glotorrents.pw:6969/announce
    - udp://tracker.zer0day.to:1337/announce
    - udp://9.rarbg.me:2710/announce
    - udp://9.rarbg.to:2710/announce
    - udp://tracker.trackerfix.com:80/announce
    - udp://tracker.opentrackr.org:1337/announce
    - udp://tracker.coppersurfer.tk:6969/announce
    - udp://tracker.leechers-paradise.org:6969/announce
    - http://ipv4.tracker.harry.lu/announce
    - http://retracker.gorcomnet.ru/announce
    - udp://shadowshq.yi.org:6969/announce
    - udp://tracker.leechers-paradise.org:6969/announce
    - udp://eddie4.nl:6969/announce
    - udp://p4p.arenabg.ch:1337/announce
    - udp://p4p.arenabg.com:1337/announce
    - udp://ipv4.tracker.harry.lu:80/announce
    - udp://tracker.ilibr.org:80/announce
    - udp://tracker.ilibr.org:6969/announce
    - udp://tracker.coppersurfer.tk:6969/announce
    - udp://tracker.zer0day.to:1337/announce
    - udp://tracker.opentrackr.org:1337/announce
    - UDP://EDDIE4.NL:6969/announce
    - UDP://TRACKER.ZER0DAY.TO:1337/announce
    - UDP://TRACKER.OPENTRACKR.ORG:1337/announce
    - UDP://TRACKER.COPPERSURFER.TK:6969/announce
    - UDP://TRACKER.LEECHERS-PARADISE.ORG:6969/announce
Tools
Last scrape: 30 October 2018 08:44:42