Spider-Man Homecoming (2017) Hindi Dubbed - 2CD

Watch Free HD           Download Now
Torrent name: Spider-Man Homecoming (2017) Hindi Dubbed - 2CD
File size: 1.4 GB
Seeds: 0
Leechs: 1
Update S/L
Last scrape: 2 September 2019 11:25:27
Downloaded: 0
Categories: Hindi Dubbed Movies
Uploader: TodayPk.se
Download Spider-Man Homecoming (2017) Hindi Dubbed - 2CD
Magnet



General
Format                                   : MPEG-4
Format profile                           : Base Media
Codec ID                                 : isom (isom)
File size                                : 1.40 GiB
Duration                                 : 2 h 25 min

Video
ID                                       : 1
Format                                   : AVC
Format/Info                              : Advanced Video Codec
Format profile                           : [email protected]
Format settings, CABAC                   : Yes
Format settings, RefFrames               : 4 frames
Codec ID                                 : avc1
Codec ID/Info                            : Advanced Video Coding
Duration                                 : 2 h 25 min
Bit rate                                 : 1 253 kb/s
Maximum bit rate                         : 3 777 kb/s
Width                                    : 720 pixels
Height                                   : 384 pixels
Display aspect ratio                     : 1.85:1
Frame rate mode                          : Constant
Frame rate                               : 25.000 FPS
Color space                              : YUV
Chroma subsampling                       : 4:2:0
Bit depth                                : 8 bits
Scan type                                : Progressive
Bits/(Pixel*Frame)                       : 0.181
Stream size                              : 1.27 GiB (91%)

Audio
ID                                       : 2
Format                                   : AC-3
Format/Info                              : Audio Coding 3
Format settings, Endianness              : Big
Codec ID                                 : ac-3
Duration                                 : 2 h 25 min
Bit rate mode                            : Constant
Bit rate                                 : 128 kb/s
Maximum bit rate                         : 135 kb/s
Channel(s)                               : 2 channels
Channel positions                        : Front: L R
Sampling rate                            : 48.0 kHz
Stream size                              : 133 MiB (9%)

Thumbnail

Advertisement
    - udp://9.rarbg.me:2710/announce
    - udp://explodie.org:6969/announce
    - udp://9.rarbg.com:2710/announce
    - udp://tracker.opentrackr.org:1337/announce
    - udp://shadowshq.yi.org:6969/announce
    - udp://p4p.arenabg.com:1337/announce
    - udp://ipv4.tracker.harry.lu:80/announce
    - udp://tracker.leechers-paradise.org:6969/announce
    - udp://tracker.eddie4.nl:6969/announce
    - udp://shadowshq.eddie4.nl:6969/announce
    - udp://tracker.coppersurfer.tk:80/announce
    - udp://tracker.coppersurfer.tk:6969/announce
    - udp://tracker.zer0day.to:1337/announce
    - udp://9.rarbg.to:2710/announce
    - udp://p4p.arenabg.ch:1337/announce
Tools
Last scrape: 2 September 2019 11:25:27