Signs 2002 720p BluRay Dual Audio English Hindi Dubbed

Watch Free HD           Download Now
Torrent name: Signs 2002 720p BluRay Dual Audio English Hindi Dubbed
File size: 770.29 MB
Seeds: 0
Leechs: 12
Update S/L
Last scrape: 12 July 2018 07:47:02
Downloaded: 608
Categories: Hindi Dubbed Movies
Uploader: TodayPk.se
Download Signs 2002 720p BluRay Dual Audio English Hindi Dubbed
Magnet

Video 
Format : AVC 
Codec ID : V_MPEG4/ISO/AVC 
Duration : 1 h 46 min 
Bit rate : 822 kb/s 
Width : 1 280 pixels 
Height : 690 pixels 
Display aspect ratio : 1.85:1 
Frame rate mode : Constant 
Frame rate : 23.976 (24000/1001) FPS 
Stream size : 626 MiB (81%) 
Writing library : x264 core 120 r2164 da19765 

Audio #1 
Format : AC-3 
Duration : 1 h 46 min 
Bit rate mode : Constant 
Bit rate : 96.0 kb/s 
Channel(s) : 6 channels 
Channel positions : Front: L C R, Side: L R, LFE 
Sampling rate : 44.1 kHz 
Stream size : 73.1 MiB (9%) 
Language : English 

Audio #2 
Format : AC-3 
Duration : 1 h 41 min 
Bit rate mode : Constant 
Bit rate : 96.0 kb/s 
Channel(s) : 6 channels 
Channel positions : Front: L C R, Side: L R, LFE 
Sampling rate : 44.1 kHz 
Stream size : 69.4 MiB (9%) 
Language : Hindi 

Text 
Duration : 1 h 36 min 
Language : English 


Advertisement
    - udp://thetracker.org:80
    - udp://tracker.pirateparty.gr:6969/announce
    - udp://tracker.zer0day.to:1337/announce
    - udp://tracker.sktorrent.net:6969/announce
    - udp://tracker.internetwarriors.net:1337/announce
    - udp://tracker.coppersurfer.tk:6969
    - udp://open.demonii.com:1337
    - udp://tracker.leechers-paradise.org:6969
    - udp://public.popcorn-tracker.org:6969/announce
    - udp://tracker.leechers-paradise.org:6969/announce
    - udp://explodie.org:6969/announce
    - udp://p4p.arenabg.com:1337/announce
    - udp://zer0day.to:1337/announce
    - udp://tracker.zer0day.to:1337/announce
    - udp://tracker.opentrackr.org:1337/announce
    - udp://tracker.coppersurfer.tk:6969/announce
Tools
Last scrape: 12 July 2018 07:47:02